Welkom gast! Registreren
GemistDownloader 2.9.0.3  - Downloads RTL XL blijven hangen op 0%
#1
Beste Webmaster,

Sinds een aantal dagen lijken de rtl downloads al niet te werken vandaag weer een programma proberen te downloaden en blijft steeds bij initialiseren of op 0% hangen verder gaat hij niet. Ook kun je de kwaliteit blijkbaar niet meer kiezen staat gewoon standaard vast op 720p kan je niet veranderen als je een programma toevoegd om te gaan downloaden. Ik weet niet waar de fout ligt natuurlijk, maar lijkt me sterk dat we ineens niks meer via rtlxl kunnen downloaden. Graag hoop ik dat hier een oplossing voor komt want ik vind je programma nog steeds top en gebruik het bijna dagelijks met veel plezier. In de log die ik bijgevoegd heb zie ik vaak invalid timestamps of invalid dts staan.

Ik heb maar even een willekeurig voorbeeld gepakt om de log mee te maken, dit is alles mag op zondag van 08-01-2017

Deze log kreeg ik:

Code:
Start (IC1oaWRlX2Jhbm5lciAtdXNlci1hZ2VudCAiTW96aWxsYS81LjAgKFdpbmRvd3MgTlQgNi4xOyBXT1c2NDsgcnY6NDAuMCkgR2Vja28vMjAxMDAxMDEgRmlyZWZveC80MC4xIiAgLWkgImh0dHA6Ly9tYW5pZmVzdC51cy5ydGwubmwvMTAvdjE2Ni9hZXMvYWRhcHRpdmUvY29tcG9uZW50cy92aWRlb3JlY29yZGVyLzMxLzMxNzQxNS8zODE0OTQvMDAwMDU2MmItOTgxOC0zNTc1LWEwZTgtNjY1MzE3MDAwZjJjLnNzbS8wMDAwNTYyYi05ODE4LTM1NzUtYTBlOC02NjUzMTcwMDBmMmMuaXNtLzAwMDA1NjJiLTk4MTgtMzU3NS1hMGU4LTY2NTMxNzAwMGYyYy1hdWRpb19lbmc9MTI1NDM3LXZpZGVvPTQxODQwMDAubTN1OCIgIC1pICJDOlxVc2Vyc1xSYW1vblxBcHBEYXRhXFJvYW1pbmdcR2VtaXN0RG93bmxvYWRlclxtZXRhZGF0YS5tZXRhIiAtbWFwX2NoYXB0ZXJzIDEgLWMgY29weSAteSAtYWMgMiAtdGhyZWFkcyAwIC1ic2Y6YSBhYWNfYWR0c3RvYXNjICAgLXIgMjUgLW1ldGFkYXRhIGVuY29kZWRfYnk9IkdlbWlzdERvd25sb2FkZXIgMi45LjAuMyIgLW1ldGFkYXRhIHRpdGxlPSJBZmwuIDEiIC1tZXRhZGF0YSB5ZWFyPSIyMDE3IiAtbWV0YWRhdGEgY29weXJpZ2h0PSIoYykgUlRMNCwgMjAxNyIgLW1ldGFkYXRhIGRlc2NyaXB0aW9uPSJSZW5hdGUgVmVyYmFhbiwgTWFydGlqbiBGaXNjaGVyLCBLaW0gRmVlbnN0cmEgZW4gSmFuaWNlIHN0YWFuIHRlYW1jYXB0YWlucyBHb3Jkb24gZW4gR2VyYXJkIEpvbGluZyBiaWogaW4gZGUgaGlsYXJpc2NoZSBzdHJpamQgZGllIHdlZXIgbG9zYmFyc3QuIiAtbWV0YWRhdGEgc2hvdz0iQWxsZXMgTWFnIE9wIFpvbmRhZyIgLW1ldGFkYXRhIG5ldHdvcms9IlJUTDQiIC1tZXRhZGF0YSBtZWRpYV90eXBlPTEwIC1tZXRhZGF0YSBzZWFzb25fbnVtYmVyPTQgLW1ldGFkYXRhIGVwaXNvZGVfaWQ9IjEiIC1tZXRhZGF0YSBlcGlzb2RlX3Nob3J0PTEgIkM6XFVzZXJzXFJhbW9uXERvY3VtZW50c1xOZXRYZmVyXEFsbGVzIE1hZyBPcCBab25kYWcgLSBBZmwgMSBbMjAxNzAxMDhdICgxKS5tcDQi)
[mpegts @ 00b0e020] Invalid timestamps stream=1, pts=903600, dts=910800, size=53
[mpegts @ 00b0e020] Invalid timestamps stream=1, pts=910800, dts=914400, size=7196
[mpegts @ 00b0e020] Invalid timestamps stream=1, pts=918000, dts=925200, size=8771
[mpegts @ 00b0e020] Invalid timestamps stream=1, pts=925200, dts=928800, size=10212
[mpegts @ 00b0e020] Invalid timestamps stream=1, pts=932400, dts=939600, size=9890
[mpegts @ 00b0e020] Invalid timestamps stream=1, pts=939600, dts=943200, size=9504
[mpegts @ 00b0e020] Invalid timestamps stream=1, pts=946800, dts=954000, size=11125
[mpegts @ 00b0e020] Invalid timestamps stream=1, pts=954000, dts=957600, size=10759
[mpegts @ 00b0e020] Invalid timestamps stream=1, pts=961200, dts=968400, size=13375
[mpegts @ 00b0e020] Invalid timestamps stream=1, pts=968400, dts=972000, size=13324
[hls,applehttp @ 00acd740] Invalid timestamps stream=1, pts=903600, dts=910800, size=67
[hls,applehttp @ 00acd740] Invalid timestamps stream=1, pts=910800, dts=914400, size=7210
[hls,applehttp @ 00acd740] Invalid timestamps stream=1, pts=918000, dts=925200, size=8785
[hls,applehttp @ 00acd740] Invalid timestamps stream=1, pts=925200, dts=928800, size=10226
[hls,applehttp @ 00acd740] Invalid timestamps stream=1, pts=932400, dts=939600, size=9904
[hls,applehttp @ 00acd740] Invalid timestamps stream=1, pts=939600, dts=943200, size=9518
[hls,applehttp @ 00acd740] Invalid timestamps stream=1, pts=946800, dts=954000, size=11139
[hls,applehttp @ 00acd740] Invalid timestamps stream=1, pts=954000, dts=957600, size=10773
[hls,applehttp @ 00acd740] Invalid timestamps stream=1, pts=961200, dts=968400, size=13389
[hls,applehttp @ 00acd740] Invalid timestamps stream=1, pts=968400, dts=972000, size=13338
Input #0, hls,applehttp, from 'http://manifest.us.rtl.nl/10/v166/aes/adaptive/components/videorecorder/31/317415/381494/0000562b-9818-3575-a0e8-665317000f2c.ssm/0000562b-9818-3575-a0e8-665317000f2c.ism/0000562b-9818-3575-a0e8-665317000f2c-audio_eng=125437-video=4184000.m3u8':
  Duration: 00:56:42.00, start: 10.000000, bitrate: 0 kb/s
  Program 0
    Metadata:
      variant_bitrate : 0
    Stream #0:0: Audio: aac (LC) ([15][0][0][0] / 0x000F), 48000 Hz, stereo, fltp, 120 kb/s
    Stream #0:1: Video: h264 (High) ([27][0][0][0] / 0x001B), yuv420p, 1280x720 [SAR 1:1 DAR 16:9], 25 fps, 25 tbr, 90k tbn, 50 tbc
Input #1, ffmetadata, from 'C:\Users\M\AppData\Roaming\GemistDownloader\metadata.meta':
  Duration: 00:56:41.82, start: 0.000000, bitrate: N/A
    Chapter #1:0: start 0.000000, end 975.080000
    Metadata:
      title           : Blok 1
    Chapter #1:1: start 975.080000, end 2410.600000
    Metadata:
      title           : Blok 2
    Chapter #1:2: start 2410.600000, end 3399.880000
    Metadata:
      title           : Blok 3
    Chapter #1:3: start 3399.880000, end 3401.824000
    Metadata:
      title           : Blok 4
Output #0, mp4, to 'C:\Users\M\Documents\NetXfer\Alles Mag Op Zondag - Afl 1 [20170108] (1).mp4':
  Metadata:
    encoded_by      : GemistDownloader 2.9.0.3
    title           : Afl. 1
    year            : 2017
    copyright       : (c) RTL4, 2017
    description     : Renate Verbaan, Martijn Fischer, Kim Feenstra en Janice staan teamcaptains Gordon en Gerard Joling bij in de hilarische strijd die weer losbarst.
    show            : Alles Mag Op Zondag
    network         : RTL4
    media_type      : 10
    season_number   : 4
    episode_id      : 1
    episode_short   : 1
    encoder         : Lavf57.29.101
    Chapter #0:0: start 0.000000, end 975.080000
    Metadata:
      title           : Blok 1
    Chapter #0:1: start 975.080000, end 2410.600000
    Metadata:
      title           : Blok 2
    Chapter #0:2: start 2410.600000, end 3399.880000
    Metadata:
      title           : Blok 3
    Chapter #0:3: start 3399.880000, end 3401.824000
    Metadata:
      title           : Blok 4
    Stream #0:0: Video: h264 ([33][0][0][0] / 0x0021), yuv420p, 1280x720 [SAR 1:1 DAR 16:9], q=2-31, 25 fps, 25 tbr, 12800 tbn, 25 tbc
    Stream #0:1: Audio: aac (LC) ([64][0][0][0] / 0x0040), 48000 Hz, stereo, 120 kb/s
Stream mapping:
  Stream #0:1 -> #0:0 (copy)
  Stream #0:0 -> #0:1 (copy)
Press [q] to stop, [?] for help
[mp4 @ 04354020] Invalid DTS: 1536 PTS: 512 in output stream 0:0, replacing by guess
[mp4 @ 04354020] Invalid DTS: 2048 PTS: 1536 in output stream 0:0, replacing by guess
[mp4 @ 04354020] Invalid DTS: 3584 PTS: 2560 in output stream 0:0, replacing by guess
[mp4 @ 04354020] Invalid DTS: 4096 PTS: 3584 in output stream 0:0, replacing by guess
[mp4 @ 04354020] Invalid DTS: 5632 PTS: 4608 in output stream 0:0, replacing by guess
[mp4 @ 04354020] Invalid DTS: 6144 PTS: 5632 in output stream 0:0, replacing by guess
[mp4 @ 04354020] Invalid DTS: 7680 PTS: 6656 in output stream 0:0, replacing by guess
[mp4 @ 04354020] Invalid DTS: 8192 PTS: 7680 in output stream 0:0, replacing by guess
[mp4 @ 04354020] Invalid DTS: 9728 PTS: 8704 in output stream 0:0, replacing by guess
[mp4 @ 04354020] Invalid DTS: 10240 PTS: 9728 in output stream 0:0, replacing by guess
[mpegts @ 00b0e020] Invalid timestamps stream=1, pts=975600, dts=982800, size=13597
[mpegts @ 00b0e020] Invalid timestamps stream=1, pts=982800, dts=986400, size=13862
[hls,applehttp @ 00acd740] Invalid timestamps stream=1, pts=975600, dts=982800, size=13611
[mp4 @ 04354020] Invalid DTS: 11776 PTS: 10752 in output stream 0:0, replacing by guess
[hls,applehttp @ 00acd740] Invalid timestamps stream=1, pts=982800, dts=986400, size=13876
[mp4 @ 04354020] Invalid DTS: 12288 PTS: 11776 in output stream 0:0, replacing by guess
frame=   25 fps=0.0 q=-1.0 size=     580kB time=00:00:00.96 bitrate=4947.6kbits/s speed=1.66x   
[mpegts @ 00b0e020] Invalid timestamps stream=1, pts=990000, dts=997200, size=13164
[mpegts @ 00b0e020] Invalid timestamps stream=1, pts=997200, dts=1000800, size=14307
[hls,applehttp @ 00acd740] Invalid timestamps stream=1, pts=990000, dts=997200, size=13178
[mp4 @ 04354020] Invalid DTS: 13824 PTS: 12800 in output stream 0:0, replacing by guess
[hls,applehttp @ 00acd740] Invalid timestamps stream=1, pts=997200, dts=1000800, size=14321
[mp4 @ 04354020] Invalid DTS: 14336 PTS: 13824 in output stream 0:0, replacing by guess
frame=   29 fps= 20 q=-1.0 size=     694kB time=00:00:01.13 bitrate=5031.2kbits/s speed=0.763x   
[mpegts @ 00b0e020] Invalid timestamps stream=1, pts=1004400, dts=1011600, size=14035
[mpegts @ 00b0e020] Invalid timestamps stream=1, pts=1011600, dts=1015200, size=14585
[hls,applehttp @ 00acd740] Invalid timestamps stream=1, pts=1004400, dts=1011600, size=14049
frame=   31 fps= 15 q=-1.0 size=     695kB time=00:00:01.24 bitrate=4594.2kbits/s speed=0.589x   
[mp4 @ 04354020] Invalid DTS: 15872 PTS: 14848 in output stream 0:0, replacing by guess
[hls,applehttp @ 00acd740] Invalid timestamps stream=1, pts=1011600, dts=1015200, size=14599
[mp4 @ 04354020] Invalid DTS: 16384 PTS: 15872 in output stream 0:0, replacing by guess
[mpegts @ 00b0e020] Invalid timestamps stream=1, pts=1018800, dts=1026000, size=14080
frame=   34 fps=6.7 q=-1.0 size=     800kB time=00:00:01.36 bitrate=4817.5kbits/s speed=0.27x   
frame=   35 fps=5.8 q=-1.0 size=     800kB time=00:00:01.40 bitrate=4679.9kbits/s speed=0.234x   
[mpegts @ 00b0e020] Invalid timestamps stream=1, pts=1026000, dts=1029600, size=17155
[hls,applehttp @ 00acd740] Invalid timestamps stream=1, pts=1018800, dts=1026000, size=14094
[mp4 @ 04354020] Invalid DTS: 17920 PTS: 16896 in output stream 0:0, replacing by guess
[hls,applehttp @ 00acd740] Invalid timestamps stream=1, pts=1026000, dts=1029600, size=17169
frame=   36 fps=5.5 q=-1.0 size=     850kB time=00:00:01.40 bitrate=4971.3kbits/s speed=0.212x   
[mp4 @ 04354020] Invalid DTS: 18432 PTS: 17920 in output stream 0:0, replacing by guess
[mpegts @ 00b0e020] Invalid timestamps stream=1, pts=1033200, dts=1040400, size=16831
[mpegts @ 00b0e020] Invalid timestamps stream=1, pts=1040400, dts=1044000, size=15744
[hls,applehttp @ 00acd740] Invalid timestamps stream=1, pts=1033200, dts=1040400, size=16845
frame=   39 fps=5.3 q=-1.0 size=     962kB time=00:00:01.56 bitrate=5049.6kbits/s speed=0.211x   
[mp4 @ 04354020] Invalid DTS: 19968 PTS: 18944 in output stream 0:0, replacing by guess
frame=   40 fps=5.0 q=-1.0 size=     962kB time=00:00:01.56 bitrate=5049.3kbits/s speed=0.195x   
[hls,applehttp @ 00acd740] Invalid timestamps stream=1, pts=1040400, dts=1044000, size=15758
[mp4 @ 04354020] Invalid DTS: 20480 PTS: 19968 in output stream 0:0, replacing by guess
[mpegts @ 00b0e020] Invalid timestamps stream=1, pts=1047600, dts=1054800, size=14819
[mpegts @ 00b0e020] Invalid timestamps stream=1, pts=1054800, dts=1058400, size=15903
[hls,applehttp @ 00acd740] Invalid timestamps stream=1, pts=1047600, dts=1054800, size=14833
[mp4 @ 04354020] Invalid DTS: 22016 PTS: 20992 in output stream 0:0, replacing by guess
[hls,applehttp @ 00acd740] Invalid timestamps stream=1, pts=1054800, dts=1058400, size=15917
[mp4 @ 04354020] Invalid DTS: 22528 PTS: 22016 in output stream 0:0, replacing by guess
frame=   45 fps=4.7 q=-1.0 size=    1114kB time=00:00:01.76 bitrate=5184.5kbits/s speed=0.185x   
[mpegts @ 00b0e020] Invalid timestamps stream=1, pts=1062000, dts=1069200, size=16497
frame=   45 fps=4.0 q=-1.0 size=    1129kB time=00:00:01.76 bitrate=5256.8kbits/s speed=0.158x   
[mpegts @ 00b0e020] Invalid timestamps stream=1, pts=1069200, dts=1072800, size=19873
[hls,applehttp @ 00acd740] Invalid timestamps stream=1, pts=1062000, dts=1069200, size=16511
[mp4 @ 04354020] Invalid DTS: 24064 PTS: 23040 in output stream 0:0, replacing by guess
[hls,applehttp @ 00acd740] Invalid timestamps stream=1, pts=1069200, dts=1072800, size=19887
[mp4 @ 04354020] Invalid DTS: 24576 PTS: 24064 in output stream 0:0, replacing by guess
frame=   49 fps=4.1 q=-1.0 size=    1244kB time=00:00:01.92 bitrate=5308.9kbits/s speed=0.16x   
frame=   50 fps=4.0 q=-1.0 size=    1264kB time=00:00:02.00 bitrate=5177.3kbits/s speed=0.159x   
[mpegts @ 00b0e020] Invalid timestamps stream=1, pts=1083600, dts=1090800, size=5449
[mpegts @ 00b0e020] Invalid timestamps stream=1, pts=1090800, dts=1094400, size=6715
[hls,applehttp @ 00acd740] Invalid timestamps stream=1, pts=1083600, dts=1090800, size=5463
[mp4 @ 04354020] Invalid DTS: 27136 PTS: 26112 in output stream 0:0, replacing by guess
frame=   54 fps=4.1 q=-1.0 size=    1419kB time=00:00:02.12 bitrate=5484.9kbits/s speed=0.16x   
[hls,applehttp @ 00acd740] Invalid timestamps stream=1, pts=1090800, dts=1094400, size=6729
[mp4 @ 04354020] Invalid DTS: 27648 PTS: 27136 in output stream 0:0, replacing by guess
[mpegts @ 00b0e020] Invalid timestamps stream=1, pts=1098000, dts=1105200, size=7154
[mpegts @ 00b0e020] Invalid timestamps stream=1, pts=1105200, dts=1108800, size=8547
[hls,applehttp @ 00acd740] Invalid timestamps stream=1, pts=1098000, dts=1105200, size=7168
[mp4 @ 04354020] Invalid DTS: 29184 PTS: 28160 in output stream 0:0, replacing by guess
[hls,applehttp @ 00acd740] Invalid timestamps stream=1, pts=1105200, dts=1108800, size=8561
[mp4 @ 04354020] Invalid DTS: 29696 PTS: 29184 in output stream 0:0, replacing by guess
frame=   59 fps=4.3 q=-1.0 size=    1489kB time=00:00:02.32 bitrate=5256.6kbits/s speed=0.167x   
frame=   60 fps=3.3 q=-1.0 size=    1489kB time=00:00:02.40 bitrate=5081.4kbits/s speed=0.13x   
[mpegts @ 00b0e020] Invalid timestamps stream=1, pts=1112400, dts=1119600, size=9097
[mpegts @ 00b0e020] Invalid timestamps stream=1, pts=1119600, dts=1123200, size=9494
[hls,applehttp @ 00acd740] Invalid timestamps stream=1, pts=1112400, dts=1119600, size=9111
[mp4 @ 04354020] Invalid DTS: 31232 PTS: 30208 in output stream 0:0, replacing by guess
[hls,applehttp @ 00acd740] Invalid timestamps stream=1, pts=1119600, dts=1123200, size=9508
[mp4 @ 04354020] Invalid DTS: 31744 PTS: 31232 in output stream 0:0, replacing by guess
[mpegts @ 00b0e020] Invalid timestamps stream=1, pts=1126800, dts=1134000, size=11945
[mpegts @ 00b0e020] Invalid timestamps stream=1, pts=1134000, dts=1137600, size=12059
[hls,applehttp @ 00acd740] Invalid timestamps stream=1, pts=1126800, dts=1134000, size=11959
[mp4 @ 04354020] Invalid DTS: 33280 PTS: 32256 in output stream 0:0, replacing by guess
[hls,applehttp @ 00acd740] Invalid timestamps stream=1, pts=1134000, dts=1137600, size=12073
[mp4 @ 04354020] Invalid DTS: 33792 PTS: 33280 in output stream 0:0, replacing by guess
[mpegts @ 00b0e020] Invalid timestamps stream=1, pts=1141200, dts=1148400, size=13003
frame=   68 fps=3.5 q=-1.0 size=    1637kB time=00:00:02.72 bitrate=4929.3kbits/s speed=0.142x   
[mpegts @ 00b0e020] Invalid timestamps stream=1, pts=1148400, dts=1152000, size=13664
[hls,applehttp @ 00acd740] Invalid timestamps stream=1, pts=1141200, dts=1148400, size=13017
[mp4 @ 04354020] Invalid DTS: 35328 PTS: 34304 in output stream 0:0, replacing by guess
[hls,applehttp @ 00acd740] Invalid timestamps stream=1, pts=1148400, dts=1152000, size=13678
[mp4 @ 04354020] Invalid DTS: 35840 PTS: 35328 in output stream 0:0, replacing by guess
frame=   72 fps=3.6 q=-1.0 size=    1719kB time=00:00:02.88 bitrate=4889.1kbits/s speed=0.146x   
[mpegts @ 00b0e020] Invalid timestamps stream=1, pts=1155600, dts=1162800, size=12694
[mpegts @ 00b0e020] Invalid timestamps stream=1, pts=1162800, dts=1166400, size=11886
[hls,applehttp @ 00acd740] Invalid timestamps stream=1, pts=1155600, dts=1162800, size=12708
[mp4 @ 04354020] Invalid DTS: 37376 PTS: 36352 in output stream 0:0, replacing by guess
frame=   74 fps=3.7 q=-1.0 size=    1719kB time=00:00:02.92 bitrate=4822.0kbits/s speed=0.144x   
[hls,applehttp @ 00acd740] Invalid timestamps stream=1, pts=1162800, dts=1166400, size=11900
[mp4 @ 04354020] Invalid DTS: 37888 PTS: 37376 in output stream 0:0, replacing by guess
[mpegts @ 00b0e020] Invalid timestamps stream=1, pts=1170000, dts=1177200, size=13172
frame=   77 fps=3.6 q=-1.0 size=    1833kB time=00:00:03.08 bitrate=4874.0kbits/s speed=0.146x   
[mpegts @ 00b0e020] Invalid timestamps stream=1, pts=1177200, dts=1180800, size=13950
[hls,applehttp @ 00acd740] Invalid timestamps stream=1, pts=1170000, dts=1177200, size=13186
[mp4 @ 04354020] Invalid DTS: 39424 PTS: 38400 in output stream 0:0, replacing by guess
[hls,applehttp @ 00acd740] Invalid timestamps stream=1, pts=1177200, dts=1180800, size=13964
[mp4 @ 04354020] Invalid DTS: 39936 PTS: 39424 in output stream 0:0, replacing by guess
frame=   79 fps=3.6 q=-1.0 size=    1833kB time=00:00:03.12 bitrate=4811.6kbits/s speed=0.141x   
[mpegts @ 00b0e020] Invalid timestamps stream=1, pts=1184400, dts=1191600, size=13633
frame=   79 fps=3.5 q=-1.0 size=    1866kB time=00:00:03.12 bitrate=4898.5kbits/s speed=0.137x   
[mpegts @ 00b0e020] Invalid timestamps stream=1, pts=1191600, dts=1195200, size=14513
[hls,applehttp @ 00acd740] Invalid timestamps stream=1, pts=1184400, dts=1191600, size=13647
[mp4 @ 04354020] Invalid DTS: 41472 PTS: 40448 in output stream 0:0, replacing by guess
[hls,applehttp @ 00acd740] Invalid timestamps stream=1, pts=1191600, dts=1195200, size=14527
[mp4 @ 04354020] Invalid DTS: 41984 PTS: 41472 in output stream 0:0, replacing by guess
frame=   83 fps=3.4 q=-1.0 size=    1938kB time=00:00:03.28 bitrate=4840.1kbits/s speed=0.135x   
frame=   83 fps=3.3 q=-1.0 size=    1952kB time=00:00:03.28 bitrate=4874.1kbits/s speed=0.131x   
frame=   83 fps=3.2 q=-1.0 size=    1966kB time=00:00:03.28 bitrate=4909.5kbits/s speed=0.128x   
[mpegts @ 00b0e020] Invalid timestamps stream=1, pts=1198800, dts=1206000, size=14506
[mpegts @ 00b0e020] Invalid timestamps stream=1, pts=1206000, dts=1209600, size=14810
[hls,applehttp @ 00acd740] Invalid timestamps stream=1, pts=1198800, dts=1206000, size=14520
[mp4 @ 04354020] Invalid DTS: 43520 PTS: 42496 in output stream 0:0, replacing by guess
[hls,applehttp @ 00acd740] Invalid timestamps stream=1, pts=1206000, dts=1209600, size=14824
[mp4 @ 04354020] Invalid DTS: 44032 PTS: 43520 in output stream 0:0, replacing by guess
[mpegts @ 00b0e020] Invalid timestamps stream=1, pts=1213200, dts=1220400, size=13195
frame=   88 fps=3.1 q=-1.0 size=    2054kB time=00:00:03.52 bitrate=4779.9kbits/s speed=0.124x   
[mpegts @ 00b0e020] Invalid timestamps stream=1, pts=1220400, dts=1224000, size=13568
[hls,applehttp @ 00acd740] Invalid timestamps stream=1, pts=1213200, dts=1220400, size=13209
[mp4 @ 04354020] Invalid DTS: 45568 PTS: 44544 in output stream 0:0, replacing by guess
[hls,applehttp @ 00acd740] Invalid timestamps stream=1, pts=1220400, dts=1224000, size=13582
[mp4 @ 04354020] Invalid DTS: 46080 PTS: 45568 in output stream 0:0, replacing by guess
frame=   92 fps=3.1 q=-1.0 size=    2139kB time=00:00:03.68 bitrate=4761.6kbits/s speed=0.123x   
[mpegts @ 00b0e020] Invalid timestamps stream=1, pts=1227600, dts=1234800, size=13785
[mpegts @ 00b0e020] Invalid timestamps stream=1, pts=1234800, dts=1238400, size=14923
[hls,applehttp @ 00acd740] Invalid timestamps stream=1, pts=1227600, dts=1234800, size=13799
[mp4 @ 04354020] Invalid DTS: 47616 PTS: 46592 in output stream 0:0, replacing by guess
[hls,applehttp @ 00acd740] Invalid timestamps stream=1, pts=1234800, dts=1238400, size=14937
[mp4 @ 04354020] Invalid DTS: 48128 PTS: 47616 in output stream 0:0, replacing by guess
[mpegts @ 00b0e020] Invalid timestamps stream=1, pts=1242000, dts=1249200, size=14047
frame=   96 fps=3.0 q=-1.0 size=    2226kB time=00:00:03.84 bitrate=4748.6kbits/s speed=0.122x   
[mpegts @ 00b0e020] Invalid timestamps stream=1, pts=1249200, dts=1252800, size=15217
frame=   97 fps=3.0 q=-1.0 size=    2227kB time=00:00:03.88 bitrate=4701.0kbits/s speed=0.119x   
[hls,applehttp @ 00acd740] Invalid timestamps stream=1, pts=1242000, dts=1249200, size=14061
[mp4 @ 04354020] Invalid DTS: 49664 PTS: 48640 in output stream 0:0, replacing by guess
[hls,applehttp @ 00acd740] Invalid timestamps stream=1, pts=1249200, dts=1252800, size=15231
[mp4 @ 04354020] Invalid DTS: 50176 PTS: 49664 in output stream 0:0, replacing by guess
frame=  101 fps=3.0 q=-1.0 size=    2316kB time=00:00:04.04 bitrate=4696.9kbits/s speed=0.12x   
[mpegts @ 00b0e020] Invalid timestamps stream=1, pts=1263600, dts=1270800, size=8471
frame=  102 fps=2.9 q=-1.0 size=    2340kB time=00:00:04.08 bitrate=4697.9kbits/s speed=0.118x   
[mpegts @ 00b0e020] Invalid timestamps stream=1, pts=1270800, dts=1274400, size=8047
[hls,applehttp @ 00acd740] Invalid timestamps stream=1, pts=1263600, dts=1270800, size=8485
[mp4 @ 04354020] Invalid DTS: 52736 PTS: 51712 in output stream 0:0, replacing by guess
[hls,applehttp @ 00acd740] Invalid timestamps stream=1, pts=1270800, dts=1274400, size=8061
[mp4 @ 04354020] Invalid DTS: 53248 PTS: 52736 in output stream 0:0, replacing by guess
[mpegts @ 00b0e020] Invalid timestamps stream=1, pts=1278000, dts=1285200, size=8810
frame=  106 fps=3.0 q=-1.0 size=    2486kB time=00:00:04.24 bitrate=4803.0kbits/s speed=0.12x   
[mpegts @ 00b0e020] Invalid timestamps stream=1, pts=1285200, dts=1288800, size=10470
[hls,applehttp @ 00acd740] Invalid timestamps stream=1, pts=1278000, dts=1285200, size=8824
[mp4 @ 04354020] Invalid DTS: 54784 PTS: 53760 in output stream 0:0, replacing by guess
[hls,applehttp @ 00acd740] Invalid timestamps stream=1, pts=1285200, dts=1288800, size=10484
[mp4 @ 04354020] Invalid DTS: 55296 PTS: 54784 in output stream 0:0, replacing by guess
[mpegts @ 00b0e020] Invalid timestamps stream=1, pts=1292400, dts=1299600, size=12071
[mpegts @ 00b0e020] Invalid timestamps stream=1, pts=1299600, dts=1303200, size=14375
[hls,applehttp @ 00acd740] Invalid timestamps stream=1, pts=1292400, dts=1299600, size=12085
[mp4 @ 04354020] Invalid DTS: 56832 PTS: 55808 in output stream 0:0, replacing by guess
[hls,applehttp @ 00acd740] Invalid timestamps stream=1, pts=1299600, dts=1303200, size=14389
[mp4 @ 04354020] Invalid DTS: 57344 PTS: 56832 in output stream 0:0, replacing by guess
Mocht je nog meer info nodig hebben of andere logs laat het maar weten dan doe ik mijn beste deze zo snel mogelijk te plaatsen. Bedankt alvast voor de eventuele oplossing! Mochten er andere hier ook last van hebben plaats het dan ook hier, hoe meer info omtrent dit probleem hoe sneller wellicht een oplossing.
Antwoord
#2
Staat in instellingen misschien "Forceer adaptive video's" aan? Probeer deze uit te schakelen en probeer opnieuw.
Antwoord
#3
@Webmaster heb het nagekeken hij staat op automatisch. Eerder kon ik gewoon probleemloos via rtlxl downloaden nu al een paar dagen niet meer of de downloads starten niet en blijven hangen, of er wordt slechts een gedeelte van 10 a 15 seconden gedownload en dan geeft hij aan download al 100% compleet. Of het duurt uren om een programma te downloaden wat normaal nog geen 5 minuten in beslag nam. Dit is overigens echt alleen bij de rtl xl programma's, bij npo bijvoorbeeld werkt het nog steeds als een zonnetje. Ook mijn internetverbinding al gechecked ook daar geen problemen kunnen constateren, alles loopt vlekkeloos, ook pc is virusvrij en loopt zonder problemen. Mocht je nog meer willen weten hoor ik het graag. Zoals ik al aangaf deze problemen doen zich eens in de zoveel tijd voor waardoor je bijna niks meer kunt downloaden wat ik jammer vind want ik vind je programma echt top en gebruik het echt bijna dagelijks.
Antwoord
#4
@kanefan1984 dan ligt het aan jouw PC en/of instellingen. Hier werkt het perfect.
Antwoord
#5
@cmrboer In mijn log kwamen toch duidelijk fouten naar voren. En zoals ik al zei mijn pc werkt prima en internet ook. Heb het ook nog op een laptop geprobeerd precies hetzelfde dus lijkt me sterk dat het aan de pc of laptop ligt. Provider ook nog modem laten uitlezen geen fouten, internetkabel is pas vernieuwd. Denk eerder dat het probleem bij rtl ligt, heb hier toch al eerder op het forum mensen gezien die dezelfde problemen omschreven als ik had, downloads die niet starten of ineens uren er over doen om te downloaden terwijl normaal dat zo gedownload was. Bovendien heb de laatste maanden niks veranderd aan mijn pc en instellingen in gemistdownloader verander ik sowieso nooit.

@Webmaster Het lijkt vooralsnog voor nu weer te werken, ik zal bij eventuele problemen in de komende dagen als die zich mochten voordoen dat hier in dit topic posten. Bedankt weer voor de feedback!!
Antwoord
#6
Afzonderlijke fragmenten van RTL Boulevard kunnen nog niet gedownld worden door gemistdl

http://www.rtl.nl/rtlhome/nieuws/02b49e3...-de-peppie

http://www.rtl.nl/rtlhome/nieuws/38071da...-vonk-over

Opgelost: vanaf hier downloaden:
http://www.rtl.nl/gemist/rtl-boulevard/fragmenten/
Geldig formaat voor gemistdl: http://www.rtlxl.nl/#!/rtl-boulevard-965...e0d2bc0e66
Antwoord
#7
Ondersteuning van de Trending topics van rtlxl.nl?

http://www.rtl.nl/rtlhome/nieuws/38071da...-vonk-over
Antwoord


Ga naar locatie:


Gebruikers die dit topic lezen: 1 gast(en)